<?xml version="1.0" standalone="no"?>
<!DOCTYPE svg PUBLIC "-//W3C//DTD SVG 1.1//EN" "http://www.w3.org/Graphics/SVG/1.1/DTD/svg11.dtd" >
<svg xmlns="http://www.w3.org/2000/svg" xmlns:xlink="http://www.w3.org/1999/xlink" version="1.1">
<metadata>
Created by FontForge 20170731 at Fri Oct 16 12:37:54 2020
 By Aleksey,,,
</metadata>
<defs>
<font id="icomoon" horiz-adv-x="1024" >
  <font-face 
    font-family="icomoon"
    font-weight="400"
    font-stretch="normal"
    units-per-em="1024"
    panose-1="0 0 0 0 0 0 0 0 0 0"
    ascent="960"
    descent="-64"
    bbox="-2 -66 1536 960"
    underline-thickness="0"
    underline-position="0"
    unicode-range="U+0001-FFFD"
  />
<missing-glyph 
 />
    <glyph glyph-name=".notdef" unicode="&#xfffd;" 
 />
    <glyph glyph-name="glyph1" horiz-adv-x="0" 
d="M0 0v0v0v0z" />
    <glyph glyph-name="glyph1" horiz-adv-x="0" 
d="M0 0v0v0v0z" />
    <glyph glyph-name="nonmarkingreturn" horiz-adv-x="341" 
 />
    <glyph glyph-name="uni0001" horiz-adv-x="0" 
d="M0 0v0v0v0z" />
    <glyph glyph-name="space" unicode=" " horiz-adv-x="512" 
d="M0 0v0v0v0z" />
    <glyph glyph-name="uniE900" unicode="&#xe900;" 
d="M968 519h-385v385q-4 24 -23 40t-44 16h-2h-2v0h-2h-2q-25 0 -44 -15.5t-23 -39.5v-1v-385h-385q-24 -4 -40 -23t-16 -44v-2v-2v0v-2v-2q0 -25 16 -44t39 -23h1h385v-385q4 -24 23 -40t44 -16h2h2v0h2h2q25 0 44 15.5t23 39.5v1v385h385q24 4 40 23t16 44v2v2v0v2v2
q0 25 -15.5 44t-39.5 23h-1v0z" />
    <glyph glyph-name="uniE901" unicode="&#xe901;" horiz-adv-x="1027" 
d="M410 41v-104l-25 20q-52 43 -99 89t-90 95l-1 2q-49 55 -85 108q-37 53 -61 102.5t-37 95.5q-12 47 -12 90v11q0 85 32 160q32 74 88 130t130 88q75 32 160 32t160 -32q74 -32 130 -88t88 -130q32 -75 32 -160v0v-11q0 -8 -0.5 -15t-0.5 -15l-81 74q-6 62 -34 117
q-28 54 -72 94t-101 63t-121 23q-68 0 -128 -26q-61 -26 -105.5 -70.5t-70.5 -105.5q-26 -60 -26 -128v-11q0 -73 40 -150t94.5 -145.5t109.5 -122.5q56 -54 86 -80v0zM656 98h120v120h-120v-120zM410 720v0v0q70 0 120 -50t50 -120t-50 -120t-120 -50t-120 50t-50 120v0v0
v0q0 70 50 120t120 50v0v0zM410 640q-37 0 -63.5 -26.5t-26.5 -63.5t26.5 -63.5t63.5 -26.5t63.5 26.5t26.5 63.5v0v0v0q0 37 -26.5 63.5t-63.5 26.5v0v0v0v0zM973 152l-23 21v-129q0 -44 -31.5 -76t-76.5 -32h-254q-45 0 -76.5 32t-31.5 76v129l-23 -21l-54 59l312 285
l312 -285zM870 246l-155 141l-155 -141v-202q0 -11 8.5 -19.5t19.5 -8.5h254q12 0 20 8.5t8 19.5v0v202z" />
    <glyph glyph-name="uniE902" unicode="&#xe902;" 
d="M749 -54l51 52q5 4 8 10t3 13t-3 13t-8 11l-403 403l403 403q5 5 8 11t3 13t-3 13t-8 10l-51 52q-4 4 -10.5 7t-13.5 3t-13 -3t-10 -7l-478 -478q-5 -5 -8 -11t-3 -13t3 -13t8 -11l478 -478q4 -4 10 -7t13 -3t13.5 3t10.5 7v0v0z" />
    <glyph glyph-name="uniE903" unicode="&#xe903;" 
d="M275 -54l-51 52q-5 4 -8 10t-3 13t3 13t8 11l403 403l-403 403q-5 5 -8 11t-3 13t3 13t8 10l51 52q4 4 10.5 7t13.5 3t13 -3t10 -7l478 -478q5 -5 8 -11t3 -13t-3 -13t-8 -11l-478 -478q-4 -4 -10 -7t-13 -3t-13.5 3t-10.5 7v0v0z" />
    <glyph glyph-name="uniE904" unicode="&#xe904;" 
d="M1014 211l-52 -51q-4 -5 -10 -8t-13 -3t-13 3t-11 8l-403 403l-403 -403q-5 -5 -11 -8t-13 -3t-13 3t-10 8l-52 51q-4 4 -7 10.5t-3 13.5t3 13t7 10l478 478q5 5 11 8t13 3t13 -3t11 -8l478 -478q4 -4 7 -10t3 -13t-3 -13.5t-7 -10.5v0v0z" />
    <glyph glyph-name="uniE905" unicode="&#xe905;" 
d="M1014 685l-52 51q-4 5 -10 8t-13 3t-13 -3t-11 -8l-403 -403l-403 403q-5 5 -11 8t-13 3t-13 -3t-10 -8l-52 -51q-4 -4 -7 -10.5t-3 -13.5t3 -13t7 -10l478 -478q5 -5 11 -8t13 -3t13 3t11 8l478 478q4 4 7 10t3 13t-3 13.5t-7 10.5v0v0z" />
    <glyph glyph-name="uniE906" unicode="&#xe906;" 
d="M853 960q-70 0 -120 -50t-50 -121h-640q-18 0 -30.5 -12.5t-12.5 -29.5v0v-768q0 -18 12.5 -30.5t30.5 -12.5v0h810q71 0 121 50t50 121v0v682q0 71 -50 121t-121 50v0v0zM853 21h-768v683h598v-597q0 -18 12.5 -30.5t29.5 -12.5q18 0 30.5 12.5t12.5 30.5v0q0 35 25 60
t60 25q36 0 61 -25t25 -60q0 -36 -25 -61t-61 -25v0v0zM939 256q-19 11 -40.5 17t-45.5 6q-23 0 -45 -6t-41 -17h1v533q0 36 25 61t60 25q36 0 61 -25t25 -61v-533v0zM171 576v-299q0 -70 50 -120t120 -50h299v85h-85v213h-86v-213h-128q-35 0 -60 25t-25 60v43h85v85h-85
v128h384v86h-427v0v0q-17 0 -29.5 -12.5t-12.5 -30.5v0z" />
    <glyph glyph-name="uniE907" unicode="&#xe907;" 
d="M704 712l-192 -193l-192 193q-15 10 -32.5 8t-29.5 -14l-1.5 -1.5l-0.5 -0.5v0l-0.5 -0.5l-1.5 -1.5q-12 -12 -14 -29.5t8 -31.5v0l193 -193l-193 -192q-9 -15 -7.5 -32.5t13.5 -29.5l1.5 -1.5l0.5 -0.5v0l0.5 -0.5l1.5 -1.5q12 -12 29.5 -14t31.5 8h1l192 193l192 -193
q15 -9 32.5 -7.5t29.5 13.5l1.5 1.5l0.5 0.5v0l0.5 0.5l1.5 1.5q12 12 14 29.5t-8 31.5v1l-193 192l193 193q9 14 7.5 31.5t-13.5 29.5l-1.5 1.5l-0.5 0.5v0l-0.5 0.5l-1.5 1.5q-12 12 -29.5 14t-31.5 -8h-1v0z" />
    <glyph glyph-name="uniE908" unicode="&#xe908;" horiz-adv-x="1119" 
d="M886 215q-58 0 -99 -41t-41 -98q0 -58 41 -99t99 -41t98.5 41t40.5 99v0q0 57 -40.5 98t-98.5 41v0v0zM886 20q-23 0 -39.5 16t-16.5 40q0 23 16.5 39t39.5 16t39.5 -16t16.5 -39v0q0 -24 -16.5 -40t-39.5 -16v0zM1110 754q-6 8 -14.5 12t-18.5 4h-819l-37 158
q-4 14 -15 23t-26 9h-138q-17 0 -29.5 -12t-12.5 -30q0 -17 12.5 -29.5t29.5 -12.5v0h105l136 -569q3 -14 14.5 -23t26.5 -9h651q15 0 26 9t15 23v0l102 411q0 3 0.5 5.5t0.5 4.5q0 8 -2.5 14.5t-6.5 11.5v0v0zM942 359h-585l-79 328h746zM379 215q-57 0 -98 -41t-41 -98
q0 -58 41 -99t98 -41q58 0 99 41t41 99v0q0 57 -41 98t-99 41v0v0zM379 20q-23 0 -39 16t-16 40q0 23 16 39t39 16q24 0 40 -16t16 -39v0q0 -24 -16 -40t-40 -16v0v0z" />
    <glyph glyph-name="uniE909" unicode="&#xe909;" horiz-adv-x="960" 
d="M780 240v600q0 50 -35 85t-85 35h-540q-50 0 -85 -35t-35 -85v-120h120v-664q0 -50 35 -85t85 -35h600q50 0 85 35t35 85v184h-180zM60 840q0 25 17.5 42.5t42.5 17.5h436q-7 -13 -11.5 -28t-4.5 -32v0v0v0v-60h-480v60zM180 56v664h420v120q1 24 18 41.5t42 17.5
t42.5 -17.5t17.5 -41.5v0v-784v0v0q0 -17 4.5 -32t11.5 -29v1h-496q-25 0 -42.5 17.5t-17.5 42.5v0v0zM900 56q0 -24 -17.5 -41.5t-42.5 -17.5t-42 17.5t-18 41.5v0v124h120v-124zM330 672l42 -42l-42 -42l-42 42zM450 673l42 -43l-42 -42l-42 42zM570 673l42 -43l-42 -42
l-42 42zM240 540h420v-60h-420v60zM240 420h180v-60h-180v60zM480 420h180v-60h-180v60zM480 300h180v-60h-180v60zM480 180h180v-60h-180v60zM240 180h180v-60h-180v60zM240 300h180v-60h-180v60z" />
    <glyph glyph-name="uniE90A" unicode="&#xe90a;" 
d="M737 778q13 0 21.5 -9t8.5 -21q0 -9 -4 -16t-12 -10v-1q-19 -11 -31.5 -30.5t-12.5 -43.5v-1.5v-1.5v0h60v1.5v0.5q0 7 3.5 13t8.5 9v0q22 12 35 33t13 47q0 37 -26 63.5t-64 26.5q-37 0 -63.5 -26.5t-26.5 -63.5v0v0v0h60v0v0q0 12 9 21t21 9v0v0v0v0zM707 598h60v-60
h-60v60zM242 960v-362h-242v-540h122v-122l160 122h500v326l120 -99v133h122v542h-782zM262 118l-80 -61v61h-122v420h182v-60h-60v-60h540v-300h-460zM964 478h-122v-65l-79 65h-461v422h662v-422zM287 238h420v-60h-420v60zM287 358h420v-60h-420v60z" />
    <glyph glyph-name="uniE90B" unicode="&#xe90b;" 
d="M914 230q10 14 15 31t5 35q0 50 -35 85t-85 35q-8 0 -16.5 -1t-16.5 -4l1 1v69q52 11 86 52t34 95v122q0 62 -44 106t-106 44h-120q-21 27 -52 43.5t-68 16.5h-240q-62 0 -106 -44t-44 -106v-182q0 -54 34 -95t85 -52h1v-69q-7 2 -15.5 3t-16.5 1q-50 0 -85 -35t-35 -85
q0 -18 5 -35t15 -31v0q-48 -13 -79 -53t-31 -91v-120q0 -12 9 -21t21 -9v0h360q12 0 21 9t9 21v0v120q0 51 -31 91t-78 53h-1q10 14 15 31t5 35q0 22 -8 42.5t-21 35.5v0l103 104h216l103 -104q-13 -15 -21 -35.5t-8 -42.5q0 -18 5 -35t15 -31v0q-48 -13 -79 -53t-31 -91
v-120q0 -12 9 -21t21 -9v0h360q12 0 21 9t9 21v0v120q0 51 -31 91t-78 53h-1v0zM210 356q25 0 42.5 -17.5t17.5 -42.5t-17.5 -42.5t-42.5 -17.5t-42.5 17.5t-17.5 42.5v0q0 25 17.5 42.5t42.5 17.5v0v0zM360 86v-90h-300v90q0 37 26.5 63.5t63.5 26.5h120q37 0 63.5 -26.5
t26.5 -63.5v0v0zM602 628q0 -37 -26.5 -63.5t-63.5 -26.5h-120v0v0q-6 0 -11.5 -2.5t-9.5 -6.5v0l-69 -69v48q0 12 -9 21t-21 9v0q-37 0 -63.5 26.5t-26.5 63.5v182q0 37 26.5 63.5t63.5 26.5h240q37 0 63.5 -26.5t26.5 -63.5v0v-182zM814 356q25 0 42.5 -17.5t17.5 -42.5
t-17.5 -42.5t-42.5 -17.5t-42.5 17.5t-17.5 42.5v0v0v0q0 25 17.5 42.5t42.5 17.5v0v0zM722 508v-48l-69 69q-4 4 -9.5 6.5t-11.5 2.5v0v0v0q14 19 22 41.5t8 48.5v0v0v0v182v0v0q0 8 -1 15.5t-2 15.5v-1h93q37 0 63.5 -26.5t26.5 -63.5v-122q0 -37 -26.5 -63.5t-63.5 -26.5
v0v0v0q-12 0 -21 -9t-9 -21v0v0v0v0zM964 -4h-300v90q0 37 26.5 63.5t63.5 26.5h120q37 0 63.5 -26.5t26.5 -63.5v0v-90zM503 831q-4 4 -9.5 6.5t-11.5 2.5t-11.5 -2.5t-9.5 -6.5l-99 -99l-39 39q-4 4 -9.5 6.5t-11.5 2.5q-12 0 -21 -9t-9 -21q0 -6 2.5 -11.5t6.5 -9.5
l60 -60q4 -4 9.5 -6.5t11.5 -2.5t11.5 2.5t9.5 6.5l120 120q4 4 6.5 9.5t2.5 11.5t-2.5 11.5t-6.5 9.5v0v0z" />
    <glyph glyph-name="uniE90C" unicode="&#xe90c;" 
d="M713 502l-144 -144v602h-114v-602l-144 144l-81 -80l242 -242q8 -8 18 -12t22 -4t22.5 4t17.5 12l242 242zM910 277v-227h-796v227h-114v-227q0 -47 33.5 -80.5t80.5 -33.5h796q47 0 80.5 33.5t33.5 80.5v227h-114z" />
    <glyph glyph-name="uniE90D" unicode="&#xe90d;" horiz-adv-x="544" 
d="M160 -64v480h-160v192h160v102q0 59 24 105t62.5 78.5t87.5 49.5t99 17h6h6q26 0 52 -2t51 -6l-4 1v-153h-105q-55 0 -71 -24.5t-16 -64.5v-103h176l-32 -192h-144v-480h-192z" />
    <glyph glyph-name="uniE90E" unicode="&#xe90e;" horiz-adv-x="1536" 
d="M597 -64h342v171h-342v-171zM0 960v-171h1536v171h-1536zM256 363h1024v170h-1024v-170z" />
    <glyph glyph-name="uniE90F" unicode="&#xe90f;" horiz-adv-x="1078" 
d="M566 960h-1.5h-0.5q-71 0 -136 -19q-65 -18 -121.5 -51.5t-102.5 -81.5q-46 -47 -79 -104l-1 -3l-124 124v-350h350l-151 151q26 51 64 92q37 42 84.5 71.5t101.5 46.5q55 16 115 16q84 0 157 -32q74 -31 129 -86t88 -129q32 -73 32 -157v0q0 -84 -32 -157
q-32 -74 -87 -129t-129 -86q-73 -32 -157 -32q-66 0 -125 20q-60 19 -110 54.5t-87 84.5q-38 49 -59 107l-1 3h-113q23 -82 70 -152q47 -69 112 -119.5t145 -78.5q80 -29 168 -29q106 0 200 41q93 40 162.5 109.5t110.5 163.5q40 93 40 199t-40 200q-41 93 -110.5 162.5
t-162.5 109.5q-93 41 -199 41v0v0zM485 691v-275l253 -151l43 70l-215 129v227h-81z" />
    <glyph glyph-name="uniE910" unicode="&#xe910;" 
d="M512 960q-106 0 -199 -40q-94 -40 -163.5 -109.5t-109.5 -163.5q-40 -93 -40 -199t40 -199q40 -94 109.5 -163.5t163.5 -109.5q93 -40 199 -40t199 40q94 40 163.5 109.5t109.5 163.5q40 93 40 199v0q0 106 -40 199q-41 94 -110 163t-163 110q-93 40 -199 40v0zM512 3
q-92 0 -173 35t-141.5 95.5t-95.5 141.5t-35 173t35 173t95.5 141.5t141.5 95.5t173 35t173 -35t141.5 -95.5t95.5 -141.5t35 -173v0q0 -92 -35 -173t-95.5 -141.5t-141.5 -95.5t-173 -35v0v0zM458 641q2 -3 3.5 -6t3.5 -6l-1 1q2 -2 4 -4.5t3 -4.5q3 -3 5.5 -5t4.5 -4v0
q3 -2 6 -3.5t6 -2.5v0q3 -2 6.5 -3t6.5 -1v0q3 -1 6 -1h6h0.5h1.5v0h0.5h1.5h5.5t5.5 1v0q3 0 5.5 1t5.5 3v0h1q3 1 6 3l6 4v0q2 2 4.5 4t4.5 4v0l1 1q2 2 3.5 4t3.5 5v0q1 2 2.5 4.5t2.5 5.5v0v1l1 1l2 6t2 7v0q0 3 0.5 6.5t0.5 6.5t-0.5 6.5t-0.5 7.5v-1q-1 4 -2 7.5
t-2 6.5v-1q-2 5 -5.5 9.5t-6.5 8.5l-2 2q-3 2 -5 4t-5 4v0q-3 2 -5.5 3.5t-5.5 2.5t-6 2.5t-6 1.5v0q-3 1 -6 1h-6h-0.5h-1.5h1h-1.5h-1.5h-5.5t-5.5 -1v0q-3 0 -6 -1.5t-6 -2.5v0h-1q-3 -1 -5.5 -2.5t-5.5 -3.5v0q-2 -2 -4.5 -4t-5.5 -4v0l-4 -4t-4 -5v0q-1 -2 -2.5 -4.5
t-2.5 -5.5l-1 -1q-1 -2 -2 -5t-2 -7v0q0 -2 -0.5 -5t-0.5 -6v-1.5v-0.5v0v-1v-1q0 -3 0.5 -6t0.5 -5v0q1 -5 2 -9l2 -8v1v0zM598 273h-23v246v0v0q0 11 -7.5 18.5t-18.5 7.5v0v0h-106v0v0q-11 0 -18.5 -7.5t-7.5 -18.5v0v0v0v-54v0v0q0 -11 7.5 -18.5t18.5 -7.5v0v0h21v-167
h-21v0v0q-11 0 -18.5 -7.5t-7.5 -18.5v0v0v0v-54v0v0q0 -11 7.5 -18.5t18.5 -7.5v0v0h155v0v0q11 0 18.5 7.5t7.5 18.5v0v0v0v54v0v0q0 11 -7.5 19t-18.5 8v0v0z" />
    <glyph glyph-name="uniE911" unicode="&#xe911;" horiz-adv-x="1072" 
d="M1072 332v-396h-230v370q0 69 -27 112.5t-89 43.5q-41 0 -73 -23.5t-45 -59.5v-1q-4 -11 -6 -23.5t-2 -25.5v-4v-3v0v-386h-230l1 99q0 99 0.5 222.5t0.5 234.5q-1 111 -2 135h230v-98q0 -1 -0.5 -1.5l-0.5 -0.5h1v2q30 52 82.5 83t115.5 31h4.5h5.5h-1q57 0 105 -19
q49 -18 84 -56.5t55 -97.5q21 -58 21 -138v0zM130 960q-59 0 -94.5 -34.5t-35.5 -84.5v-0.5v-0.5q0 -49 35 -84t84 -35h4h4v0h1q61 0 95.5 35t34.5 85v0v0q0 49 -34.5 84t-84.5 35h-4.5h-4.5v0v0zM14 -64h229v691h-229v-691z" />
    <glyph glyph-name="uniE912" unicode="&#xe912;" horiz-adv-x="816" 
d="M696 584h-72v164q-1 44 -18 83q-18 38 -47 67t-68 45q-39 17 -83 17t-83 -17q-39 -16 -68 -45t-47 -67q-17 -38 -18 -82v-1v-164h-72q-50 0 -85 -35t-35 -85v-408q0 -50 35 -85t85 -35h576q50 0 85 35t35 85v408q0 50 -35 85t-85 35v0v0zM272 748q2 55 41.5 93.5
t94.5 38.5t94.5 -38.5t41.5 -92.5v-1v-164h-272v164zM736 56q0 -17 -11.5 -28.5t-28.5 -11.5h-576q-17 0 -28.5 11.5t-11.5 28.5v408q0 17 11.5 28.5t28.5 11.5h576q17 0 28.5 -11.5t11.5 -28.5v0v-408zM408 388q-31 0 -52.5 -21.5t-21.5 -52.5q0 -20 9 -36t25 -26v0v-88
q0 -17 11.5 -28.5t28.5 -11.5t28.5 11.5t11.5 28.5v88q15 10 24.5 26t9.5 36q0 31 -21.5 52.5t-52.5 21.5v0v0z" />
    <glyph glyph-name="uniE913" unicode="&#xe913;" 
d="M910 960h-796v0v0q-47 0 -80.5 -33.5t-33.5 -80.5v0v0v0v-227h114v227h796v-796h-796v227h-114v-227v0v0q0 -47 33.5 -80.5t80.5 -33.5v0v0h796v0v0q47 0 80.5 33.5t33.5 80.5v0v0v0v796v0v0q0 47 -33.5 80.5t-80.5 33.5v0v0v0v0zM403 244l81 -80l284 284l-284 284
l-81 -80l147 -147h-550v-114h550z" />
    <glyph glyph-name="uniE914" unicode="&#xe914;" horiz-adv-x="1342" 
d="M138 863q-17 0 -29 -12t-12 -29v-748q0 -17 12 -29t29 -12h1066q17 0 29 12t12 29v748q0 17 -12 29t-29 12h-1066v0zM138 960h1066q57 0 97.5 -40.5t40.5 -97.5v0v-748q0 -57 -40.5 -97.5t-97.5 -40.5v0h-1066q-57 0 -97.5 40.5t-40.5 97.5v0v748q0 57 40.5 97.5
t97.5 40.5v0v0zM669 245v0v0q-10 0 -18.5 3.5t-15.5 9.5v0l-475 459q-7 7 -10.5 16t-3.5 19q0 20 14 34t34 14q10 0 18.5 -3.5t15.5 -9.5v0l440 -426l424 425q6 7 15 11t19 4q20 0 34.5 -14t14.5 -35q0 -10 -4 -18.5t-11 -15.5v0l-457 -459q-6 -6 -15 -10t-19 -4v0v0z
M194 122q-20 0 -34 14.5t-14 34.5q0 9 3.5 18t9.5 16v0l289 289q7 7 15.5 10.5t18.5 3.5q20 0 34 -14.5t14 -34.5q0 -9 -3.5 -17.5t-9.5 -15.5v0l-289 -290q-7 -6 -15.5 -10t-18.5 -4v0v0v0v0zM1126 122v0v0q-10 0 -18.5 3.5t-15.5 10.5v0l-295 285q-7 6 -10.5 15t-3.5 19
q0 20 14 34.5t34 14.5q10 0 18.5 -4t15.5 -10h-1l296 -285q7 -7 11 -15.5t4 -19.5q0 -20 -14.5 -34t-34.5 -14v0v0v0v0z" />
    <glyph glyph-name="uniE915" unicode="&#xe915;" horiz-adv-x="1195" 
d="M597 -64l-597 1024h1195z" />
    <glyph glyph-name="uniE916" unicode="&#xe916;" horiz-adv-x="1116" 
d="M258 403q0 59 18 114t50 100.5t76 80.5t97 55l2 1q-2 16 -9.5 29.5t-19.5 22.5v0l-172 137q-10 8 -22.5 12.5t-26.5 4.5q-15 0 -27.5 -4.5t-22.5 -13.5v1l-171 -137q-14 -11 -22 -27t-8 -35v0v0v0v-634v-0.5v-0.5q0 -32 23 -55t55 -23h1v0h343v0h1q18 0 33.5 7.5
t26.5 20.5v0q-50 22 -91 57q-42 35 -71.5 79.5t-45.5 97.5q-17 52 -17 110v0v0zM183 770q0 29 20 48.5t48 19.5t47.5 -19.5t19.5 -48.5q0 -28 -19.5 -47.5t-47.5 -19.5v0v0v0q-28 0 -48 19.5t-20 47.5v0v0zM1094 65l-177 176q21 35 32 76t11 85q0 68 -25 127
q-26 59 -70 103.5t-104 69.5q-59 26 -126 26q-68 0 -127 -26q-59 -25 -103.5 -69.5t-69.5 -103.5q-26 -59 -26 -127q0 -67 26 -126q25 -60 69.5 -104t103.5 -70q59 -25 127 -25q50 0 96 14.5t85 40.5l-2 -1l173 -173q10 -9 23 -14t27 -5q32 0 54 22t22 54q0 14 -5 27t-14 23
v0v0zM813 224q-34 -35 -80 -54.5t-99 -19.5q-52 0 -98 20q-46 19 -80.5 53.5t-54.5 80.5q-19 46 -19 99q0 52 19 98q20 46 54.5 80.5t80.5 54.5q46 19 98 19q53 0 99 -19.5t80 -54.5v0q35 -34 55 -80t20 -98q0 -53 -20 -99t-55 -80v0v0zM491 546q-27 -28 -43 -64.5
t-16 -78.5t16 -79t43.5 -64.5t63.5 -43.5q37 -16 79 -16v0v0v0h5h4v405h-4h-5v0v0q-42 0 -79 -16t-64 -43v0v0z" />
    <glyph glyph-name="uniE917" unicode="&#xe917;" horiz-adv-x="1075" 
d="M536 385q59 0 112 23q52 23 91 62t61 91q23 52 23 112q0 59 -23 112q-22 52 -61 91t-92 61q-52 23 -112 23q-59 0 -111 -23q-53 -22 -92 -61t-61 -91q-23 -52 -23 -112v0q0 -59 23 -112q22 -52 61 -91t92 -62q52 -23 112 -23v0v0zM536 885q44 0 82 -17q39 -16 67.5 -45
t45.5 -67q17 -39 17 -83t-17 -82q-17 -39 -45.5 -67.5t-67.5 -45.5q-38 -17 -82 -17t-83 17q-38 17 -67 45.5t-45 67.5q-17 38 -17 82v0q0 44 17 82q16 39 45 67.5t67 45.5q39 17 83 17v0v0zM38 -64h999v0h1q15 0 26 11t11 27v0v0v0q0 75 -28 140q-29 66 -78 115t-114 78
q-66 28 -141 28h-353q-75 0 -140 -28q-66 -29 -115 -78t-78 -115q-28 -65 -28 -140v0v0v0q0 -16 11 -27t27 -11v0v0v0v0zM361 259h353q54 0 102 -19t86 -52t62 -78q25 -45 32 -97l1 -1h-918q7 52 32 98q25 45 62.5 78t85.5 52t102 19v0v0z" />
    <glyph glyph-name="uniE918" unicode="&#xe918;" 
d="M968 519h-912q-25 -6 -40.5 -25.5t-15.5 -45.5t15.5 -45.5t39.5 -25.5h1h912q25 6 40.5 25.5t15.5 45.5t-15.5 45.5t-39.5 25.5h-1z" />
    <glyph glyph-name="uniE919" unicode="&#xe919;" horiz-adv-x="1023" 
d="M679 780v-80h-333v80h333zM807 287h-127l80 79l-56 57l-179 -178l179 -178l56 56l-83 84h130q56 0 96 -40t40 -97v0q-1 -24 -10 -45.5t-23 -39.5v1l63 -50q23 28 36.5 63t13.5 75q0 44 -17 82q-16 39 -45 68t-68 46q-39 16 -83 16h-1.5h-1.5v0v1zM903 960h-783
q-50 0 -85 -35t-35 -85v-783q0 -50 35 -85t85 -35h643l68 80h-711q-17 0 -28.5 11.5t-11.5 28.5v783q0 17 11.5 28.5t28.5 11.5h783q17 0 28.5 -11.5t11.5 -28.5v-507q23 -12 43 -27.5t37 -33.5v0v568q0 50 -35 85t-85 35v0v0z" />
    <glyph glyph-name="uniE91A" unicode="&#xe91a;" 
d="M400 240h136v-80h-136v80zM250 250q-21 0 -35.5 -14.5t-14.5 -35.5q0 -20 14.5 -35t35.5 -15t35.5 15t14.5 35v0v0v0q0 21 -14.5 35.5t-35.5 14.5v0v0zM804 494h-404v-80h404v80zM250 504q-21 0 -35.5 -14.5t-14.5 -35.5q0 -20 14.5 -35t35.5 -15t35.5 15t14.5 35v0
q0 21 -14.5 35.5t-35.5 14.5v0v0v0v0zM804 734h-404v-80h404v80zM250 744q-21 0 -35.5 -14.5t-14.5 -35.5q0 -20 14.5 -35t35.5 -15t35.5 15t14.5 35v0q0 21 -14.5 35.5t-35.5 14.5v0v0v0v0zM80 56v784q0 17 11.5 28.5t28.5 11.5h784q16 0 28 -11.5t12 -28.5v-452h80v452
q0 50 -35.5 85t-84.5 35h-784q-50 0 -85 -35t-35 -85v-784q0 -49 35 -84.5t85 -35.5h462v80h-462q-17 0 -28.5 12t-11.5 28v0v0zM967 -64l-79 80q-20 -12 -43.5 -19t-48.5 -7q-75 0 -128 53t-53 127q0 75 53 128t128 53q74 0 127 -53t53 -128q0 -27 -8 -52.5t-23 -47.5l1 1
l78 -78zM796 70q41 0 70.5 29.5t29.5 70.5q0 42 -29.5 71t-70.5 29q-42 0 -71 -29t-29 -71v0q0 -41 29 -70.5t71 -29.5v0v0z" />
    <glyph glyph-name="uniE91B" unicode="&#xe91b;" horiz-adv-x="989" 
d="M974 27l-244 254q45 53 71 121t26 144q0 86 -33 161q-32 76 -88 132t-132 88q-75 33 -161 33q-85 0 -161 -33q-75 -32 -131 -88t-88 -132q-33 -75 -33 -161q0 -85 33 -160q32 -76 88 -132t131 -88q76 -33 161 -33v0v0v0h1h1q66 0 126 20t111 56l-2 -1l246 -255
q7 -8 17 -12.5t22 -4.5q22 0 38 15.5t16 38.5q0 11 -4 20.5t-11 16.5v0v0zM413 852v0v0q64 0 119 -24q56 -24 97.5 -65.5t65.5 -96.5q24 -56 24 -119q0 -64 -24 -119q-24 -56 -65.5 -97.5t-97.5 -65.5q-55 -24 -119 -24q-63 0 -119 24q-55 24 -96.5 65.5t-65.5 97.5
q-24 55 -24 119v0q0 63 24 118q24 56 65.5 97.5t97.5 65.5q55 24 118 24v0v0z" />
    <glyph glyph-name="uniE91C" unicode="&#xe91c;" horiz-adv-x="913" 
d="M491 -64v487l422 243v-454q0 -16 -8 -29t-21 -20v0l-393 -227v0zM421 -64v0l-393 227q-12 7 -20 20t-8 29v455l421 -243v-488v0zM457 484v0l-420 243l391 225q6 4 13 6t15 2t15.5 -2t13.5 -6v0l391 -226l-419 -242v0z" />
    <glyph glyph-name="uniE91D" unicode="&#xe91d;" 
d="M302 545l-72 -71l231 -231l512 512l-72 72l-440 -440zM921 448q0 -85 -32 -159q-32 -75 -87.5 -130.5t-130.5 -87.5q-74 -33 -159 -33t-160 33q-74 32 -129.5 87.5t-88.5 130.5q-32 74 -32 159t32 159q33 75 88.5 130.5t129.5 87.5q75 33 160 33v0h1.5h1.5
q29 0 57.5 -4.5t54.5 -11.5h-2l82 82q-44 16 -93 25.5t-101 10.5h-1v0v0q-106 0 -199 -40q-94 -40 -163.5 -109.5t-109.5 -163.5q-40 -93 -40 -199t40 -199q40 -94 109.5 -163.5t163.5 -109.5q93 -40 199 -40t199 40q94 40 163.5 109.5t109.5 163.5q40 93 40 199v0h-103z
" />
    <glyph glyph-name="uniE91E" unicode="&#xe91e;" horiz-adv-x="1260" 
d="M1260 839q-32 -15 -69 -25.5t-77 -15.5h-2q40 24 69 60.5t44 80.5v2q-35 -21 -75.5 -37t-84.5 -25l-4 -1q-35 38 -84 60t-104 22q-54 0 -101 -20q-47 -21 -82 -56t-56 -82q-20 -47 -20 -101q0 -15 2 -30.5t5 -29.5v2q-81 4 -156 24q-76 21 -143.5 56t-126.5 82
q-59 48 -106 106l-1 2q-17 -28 -26 -61t-9 -69q0 -67 31 -123.5t83 -91.5h1q-33 1 -62.5 9.5t-56.5 23.5l2 -1v-3q0 -47 15 -89q16 -42 43.5 -75.5t65.5 -56.5q37 -23 81 -33h2q-15 -4 -32.5 -6.5t-35.5 -2.5q-13 0 -25.5 1.5t-24.5 3.5h1q13 -39 37 -72q23 -32 54.5 -56
t69.5 -37q38 -14 81 -15v0q-33 -26 -70 -46q-37 -21 -77.5 -35t-84.5 -22q-43 -7 -89 -7v0v0v0h-0.5h-0.5q-16 0 -32 1t-31 2h2q42 -27 88 -49q47 -21 97 -36t103 -23t108 -8v0v0v0q179 0 316 67t230.5 173t141.5 236q48 131 48 260v16.5t-1 16.5q38 28 70 61t58 71l1 2v0z
" />
    <glyph glyph-name="uniE91F" unicode="&#xe91f;" horiz-adv-x="890" 
d="M690 714q0 -52 -19 -96q-19 -45 -52.5 -78.5t-77.5 -53.5q-45 -19 -96 -19q-50 0 -95 19q-45 20 -78 53.5t-52 78.5q-20 44 -20 96q0 51 20 95q19 45 52 78.5t78 53.5q45 19 95 19q51 0 96 -19q44 -20 77.5 -53.5t52.5 -78.5q19 -44 19 -95zM445 383q-92 0 -173 -36
q-81 -35 -141.5 -95.5t-95.5 -141.5t-35 -173v-0.5v-0.5v0h890v0.5v0.5q0 92 -35 173t-95 141.5t-141 95.5q-82 36 -174 36v0v0z" />
    <glyph glyph-name="uniE920" unicode="&#xe920;" horiz-adv-x="1019" 
d="M72 199q-32 54 -50 118.5t-18 134.5q0 105 40 198q40 92 109 161t161 109q93 40 198 40t197 -40q93 -40 161.5 -109t108.5 -161q40 -93 40 -198t-40 -197q-40 -93 -108.5 -161.5t-161.5 -108.5q-92 -40 -197 -40h-1q-66 0 -128 16.5t-117 46.5l3 -1l-269 -71zM297 89
q46 -27 100.5 -43t113.5 -16v0v0h1v0v0q87 0 164 34q77 33 134 90t90 134t33 164q0 88 -33 164q-33 77 -90 134.5t-134 90.5t-164 33q-88 0 -164 -33q-77 -33 -134.5 -90.5t-90.5 -134.5q-33 -76 -33 -164q0 -62 17 -119.5t48 -106.5l-1 2l10 -16l-42 -155l159 41zM594 216
q-22 7 -40.5 14t-35.5 15l4 -2q-47 20 -86 52q-39 31 -67 61t-45 52q-16 23 -18 26q-5 7 -28.5 46t-23.5 85v1.5v1.5q0 30 12 57t32 46v0q6 7 15 11.5t19 4.5v0h12.5h11.5h1.5h1.5q6 0 12.5 -3t13.5 -19q8 -19 22.5 -54.5t16.5 -39.5q2 -3 2.5 -6t0.5 -6t-0.5 -5.5
t-1.5 -5.5v0q-3 -6 -6 -11t-7 -10v0q-4 -5 -9 -11.5t-10 -10.5q-4 -5 -7.5 -10.5t2.5 -15.5q15 -25 32.5 -47t37.5 -41v0q22 -19 47 -35t53 -27l2 -1q10 -4 16 -3.5t12 6.5q5 7 19.5 24t20.5 26q6 10 13 10t15 -3q9 -4 43 -20.5t44 -21.5q10 -4 16 -7.5t8 -7.5
q1 -4 1.5 -8.5t0.5 -8.5q0 -12 -2.5 -23t-6.5 -20v0q-8 -22 -37.5 -39.5t-48.5 -20.5q-7 -1 -14.5 -1.5t-15.5 -0.5v0h-1v0q-13 0 -25.5 2t-24.5 5h1v0z" />
    <glyph glyph-name="uniE921" unicode="&#xe921;" horiz-adv-x="1396" 
d="M1390 807l-865 -865q-3 -3 -6.5 -4.5t-7.5 -1.5t-7.5 1.5t-6.5 4.5l-491 491q-3 3 -4.5 6.5t-1.5 7.5t1.5 7.5t4.5 6.5v0l119 119q3 3 6.5 4.5t7.5 1.5t7.5 -1.5t6.5 -4.5v0l358 -358l732 732q3 3 6.5 4.5t7.5 1.5t7.5 -1.5t6.5 -4.5v0l119 -119q3 -3 4.5 -6.5t1.5 -7.5
t-1.5 -7.5t-4.5 -6.5v0v0z" />
    <glyph glyph-name="uniE922" unicode="&#xe922;" horiz-adv-x="1097" 
d="M1017 248h-11v66q-1 47 -34.5 79t-79.5 32q-47 0 -80 -32t-35 -78v-1v-66h-11h-0.5h-0.5q-33 0 -56 -23t-23 -55v0v-156q0 -32 23 -55t56 -23h0.5h0.5h251h1v0q33 0 56 23t23 55v0v156q0 32 -23 55t-56 23v0h-1v0v0zM846 314q1 19 14 32t32 13q18 0 31.5 -13t13.5 -31v-1
v-66h-91v66zM617 170q1 45 26 81t65 52h1v11q0 21 4.5 40.5t13.5 36.5v-1q-26 17 -56.5 26.5t-64.5 9.5v0v0h-389h-1h-1q-44 0 -83 -17q-39 -16 -68 -45t-46 -67q-17 -39 -18 -83v0v-156q0 -13 10 -23t24 -10v0v0h583v145zM640 737q-1 -46 -19 -87q-19 -40 -50 -70.5
t-72 -47.5t-87 -17q-47 0 -88 17t-72 47.5t-49 70.5q-19 41 -20 87v0q1 47 20 87q18 41 49 71t72 48q41 17 88 17q46 0 87 -17q41 -18 72 -48t50 -70q18 -41 19 -87v-1z" />
    <glyph glyph-name="uniE923" unicode="&#xe923;" horiz-adv-x="796" 
d="M683 960h-569q-47 0 -80 -33t-33 -80v-0.5v-0.5v0l-1 -910l398 171l399 -171v910v0v0q0 47 -33.5 80.5t-80.5 33.5v0v0v0v0z" />
    <glyph glyph-name="uniE924" unicode="&#xe924;" horiz-adv-x="796" 
d="M683 960h-569q-47 0 -80 -33t-33 -80v-0.5v-0.5v0l-1 -910l398 171l399 -171v910v0v0q0 47 -33.5 80.5t-80.5 33.5v0v0v0v0zM683 107l-285 123l-284 -123v739h569v-740v1z" />
  </font>
</defs>
</svg>
